ExtraTorrent.cc - The Largest Bittorent SystemLogin   |   Register
Latest Articles
Most searched
Hot torrents
First Cams
View Torrent Info: The Fate of the Furious 2017 HD-TS x264 AC3-CPG
View Torrent Info: The Boss Baby 2017 720p HD-TS x264 AC3-CPG
View Torrent Info: Before I Fall 2017 HDCAM 700MB x264-DiRG
View Torrent Info: The Belko Experiment 2017 HDCAM 700MB x264-DiRG
Hot torrents
XVID DIVX
View Torrent Info: Cyborg.X.2016.BRRip.XViD-ETRG
View Torrent Info: The.Amityville.Horror.2005.BRRip.XViD-ETRG
View Torrent Info: Only for One Night.2016.HDRip.XviD.AC3-EVO
View Torrent Info: Instant.Death.2017.DVDRip.XviD.AC3-EVO
Hot torrents
H264 X264
View Torrent Info: Wanted (2008) 720p BluRay x264 DTS Soup
View Torrent Info: Get.Out.2017.720p.HC.HDRip.XviD.AC3-EVO[EtHD]
View Torrent Info: Rings.2017.1080p.BRRip.x264.AAC-ETRG
View Torrent Info: Hacker.2016.720p.BRRip.x264.AAC-ETRG
Hot torrents
BluRay, 4k UHD
View Torrent Info: Mine 2017 Bluray 1080p x264 DTSHD 5.1 -DDR
View Torrent Info: All.We.Had.2016.Multi.1080p.Blu-ray.x264.DTS-HD.5.1-DDR
View Torrent Info: Paterson 2016 Multi BLURAY 1080p x264 DTSHD 5.1 -DDR
View Torrent Info: Rings.2017.Multi.BluRay.1080p.x264.DTS-HD.MA.7.1-DDR
Hot torrents
Television
View Torrent Info: Into.the.Badlands.S02E06.WEB-DL.x264-FUM[ettv]
View Torrent Info: The.Leftovers.S03E02.HDTV.x264-FUM[ettv]
View Torrent Info: Madam.Secretary.S03E19.WEB-DL.x264-FUM[ettv]
View Torrent Info: Guerrilla.S01E02.WEBRip.X264-DEFLATE[ettv]
View Torrent Info: Thoppil Joppan (2016) Bluray 1080p x264 TrueHD 5.1-DDR
View Torrent Info: Janaan (2016) TVRIP 1CDRIP x264 AAC 2.0 [DDR]
View Torrent Info: Norm Of The North (2016) x264 720p BluRay Eng Subs {Dual Audio} [Hindi ORG DD 2.0   English 5.1] Exclusive By DREDD
View Torrent Info: Oh My Friend (2011) 1080p Bluray x264 DTSHD 5.1 -DDR
30s
Chat
To add new messages please Login or Register for FREE
Warning! Use a VPN When Downloading Torrents!
Your IP Address is 107.22.30.231.   Location is United States
Your Internet Provider and Government can track your torrent activity!  Hide your IP ADDRESS with a VPN!
ExtraTorrent strongly recommends using Trust.Zone VPN to anonymize your torrenting. It's FREE!
Get VPN Now for FREE!

ExtraTorrent.cc > Categories > Movies torrents > Thriller torrents


Browse Movies torrents

Vengeance.A.Love.Story.2017.BDRip.x264-ROVERS[PRiME] torrent


Download torrent:Download Vengeance.A.Love.Story.2017.BDRip.x264-ROVERS[PRiME] torrentMagnet linkBookmark Torrent: Vengeance.A.Love.Story.2017.BDRip.x264-ROVERS[PRiME] Vengeance.A.Love.Story.2017.BDRip.x264-ROVERS[PRiME] torrent
Info hash:377A6C0D20AF6264728CA563484F4F5F267E2A3A
Category:Categories > Movies torrents > Thriller torrents
Trackers:
15   View all torrent trackers >
Health:
 seeds: ---, leechers: ---| Update >
Torrent language:English English
Total Size:705.87 MB
Number of files:
4   View torrent files >
Torrent status:Added by trusted uploader Added by trusted uploader Trusted UploaderSite FriendET junkieET lover
Uploader:Trusted UploaderSite FriendET junkieET lover
Torrent added:2017-03-26 00:01:50
Users rating:---, not rated. please login to rate.

Download Vengeance.A.Love.Story.2017.BDRip.x264-ROVERS[PRiME] torrent




Your IP Address is 107.22.30.231.   Location is United States
Your Internet Provider and Government can track your torrent activity!  Hide your IP ADDRESS with a VPN!
ExtraTorrent strongly recommends using Trust.Zone VPN to anonymize your torrenting. It's FREE!

HIDE ME NOW
Torrent Description
Vengeance.A.Love.Story.2017.BDRip.x264-ROVERS[PRiME]

ImDb: http://www.imdb.com/title/tt5460530

Info.png

Complete name : Vengeance.A.Love.Story.2017.BDRip.x264-ROVERS[PRiME].mkv
Format : Matroska
Format version : Version 4 / Version 2
File size : 706 MiB
Duration : 1 h 38 min
Overall bit rate : 1 001 kb/s
Encoded date : UTC 2017-03-25 21:45:30
Writing application : mkvmerge v8.3.0 (\'Over the Horizon\') 64bit
Writing library : libebml v1.3.1 + libmatroska v1.4.2

Video
ID : 1
Format : AVC
Format/Info : Advanced Video Codec
Format profile : [email protected]
Format settings, CABAC : Yes
Format settings, ReFrames : 5 frames
Codec ID : V_MPEG4/ISO/AVC
Duration : 1 h 38 min
Bit rate : 893 kb/s
Width : 720 pixels
Height : 388 pixels
Display aspect ratio : 1.85:1
Frame rate mode : Constant
Frame rate : 23.976 FPS
Color space : YUV
Chroma subsampling : 4:2:0
Bit depth : 8 bits
Scan type : Progressive
Bits/(Pixel*Frame) : 0.133
Stream size : 630 MiB (89%)
Title : X264
Writing library : x264 core 148 r2744 b97ae06
Encoding settings : cabac=1 / ref=5 / deblock=1:-2:-2 / analyse=0x3:0x113 / me=hex / subme=8 / psy=1 / psy_rd=0.90:0.00 / mixed_ref=1 / me_range=16 / chroma_me=1 / trellis=2 / 8x8dct=1 / cqm=0 / deadzone=21,11 / fast_pskip=1 / chroma_qp_offset=-2 / threads=12 / lookahead_threads=2 / sliced_threads=0 / nr=0 / decimate=1 / interlaced=0 / bluray_compat=0 / constrained_intra=0 / bframes=3 / b_pyramid=2 / b_adapt=1 / b_bias=0 / direct=3 / weightb=1 / open_gop=0 / weightp=2 / keyint=250 / keyint_min=23 / scenecut=40 / intra_refresh=0 / rc_lookahead=50 / rc=crf / mbtree=1 / crf=19.0 / qcomp=0.60 / qpmin=0 / qpmax=69 / qpstep=4 / ip_ratio=1.40 / aq=1:1.00
Language : English
Default : Yes
Forced : No
Color range : Limited
Matrix coefficients : BT.709

Audio
ID : 2
Format : AAC
Format/Info : Advanced Audio Codec
Format profile : LC
Codec ID : A_AAC
Duration : 1 h 38 min
Bit rate : 106 kb/s
Channel(s) : 2 channels
Channel positions : Front: L R
Sampling rate : 48.0 kHz
Frame rate : 46.875 FPS (1024 spf)
Compression mode : Lossy
Stream size : 74.7 MiB (11%)
Language : English
Default : Yes
Forced : No

Menu
00:00:00.000 : en:00:00:00.000
00:12:30.875 : en:00:12:30.875
00:25:57.389 : en:00:25:57.389
00:39:47.719 : en:00:39:47.719
00:55:14.061 : en:00:55:14.061
01:05:39.894 : en:01:05:39.894
01:22:32.364 : en:01:22:32.364
01:34:29.497 : en:01:34:29.497


Screens.png

Click Image To View Full Size

DMwjb.th.jpg
Click To View Screenshot
Click To View Screenshot
Click To View Screenshot

Download Vengeance.A.Love.Story.2017.BDRip.x264-ROVERS[PRiME] torrent


Related Torrents


Comments (please add your comment)
No comments



Home - Browse Torrents - Upload Torrent - Stat - Forum - FAQ - Login
ExtraTorrent.cc is in compliance with copyrights
Can't load ExtraTorrent? Try our official mirrors: etmirror.com - etproxy.com - extratorrentonline.com - extratorrentlive.com
2006-2017 ExtraTorrent.cc4