ExtraTorrent.cc - The Largest Bittorent SystemLogin   |   Register
Latest Articles
Most searched
Hot torrents
First Cams
View Torrent Info: Beauty and The Beast 2017 720p HD-TS x264-CPG
View Torrent Info: Kong.Skull.Island.2017.CAM.XviD-VAiN
View Torrent Info: The Shack 2017 HDCAM x264-iMLEAVING
View Torrent Info: T2.Trainspotting.2017.CAM.XViD-ETRG
Hot torrents
XVID DIVX
View Torrent Info: Kung.Fu.Yoga.2017.HC.HDRip.XviD.AC3-EVO
View Torrent Info: The.Rift.2016.HDRip.XViD-ETRG
View Torrent Info: Warriors.Gate.2016.BDRip.XviD.AC3-EVO
View Torrent Info: The.House.of.the.Devil.2009.BRRip.XviD-ETRG
Hot torrents
H264 X264
View Torrent Info: Vengeance.A.Love.Story.2017.720p.BRRip.x264.AAC-ETRG
View Torrent Info: Moana.2016.BluRay.1080p.DTS.AC3.x264-ETRG
View Torrent Info: Assassins.Creed.2016.BluRay.720p.DTS.AC3.x264-ETRG
View Torrent Info: From.a.House.on.Willow.Street.2016.720p.WEBRip.x264.AAC-ETRG
Hot torrents
BluRay, 4k UHD
View Torrent Info: Kabhi Khushi Kabhie Gham 2001 Bluray 1080p x264 DTSHD 5.1 -DDR
View Torrent Info: Passengers 2016 Multi UHD BluRay 2160p HEVC HDR10 DTSHD 5.1 -DDR
View Torrent Info: Dont Kill It 2016 BluRay 1080p x264 DTSHD5.1 -DDR
View Torrent Info: Warriors Gate 2016 1080p Bluray x264 DTSHD 5.1 -DDR
Hot torrents
Television
View Torrent Info: The.Walking.Dead.S07E15.WEB-DL.x264-FUM[ettv]
View Torrent Info: Into.the.Badlands.S02E02.WEB-DL.x264-FUM[ettv]
View Torrent Info: Time.After.Time.US.S01E05.HDTV.x264-LOL[ettv]
View Torrent Info: Elementary.S05E18.HDTV.x264-LOL[ettv]
View Torrent Info: Kabhi Alvida Naa Kehna 2006 1080p Bluray x264 DTSHD 5.1 -DDR
View Torrent Info: Yo-Kai Watch Movie (2014) x264 720p BluRay {Dual Audio} [Hindi ORG DD 2.0   Japanese 5.1] Exclusive By DREDD
View Torrent Info: Dil To Pagal Hai 1997 BluRay 1080P x264 DTSHD 5.1 -DDR
View Torrent Info: Ho Mann Jahaan (2016) TVRIP 1CDRIP x264 AAC [DDR]
30s
Chat
To add new messages please Login or Register for FREE
Warning! Use a VPN When Downloading Torrents!
Your IP Address is 54.166.89.1.   Location is United States
Your Internet Provider and Government can track your torrent activity!  Hide your IP ADDRESS with a VPN!
ExtraTorrent strongly recommends using Trust.Zone VPN to anonymize your torrenting. It's FREE!
Get VPN Now for FREE!

ExtraTorrent.cc > Categories > Movies torrents > Movies 4K torrents


Browse Movies torrents

Fantastic Four 2015 2160p 4K UHD BluRay HEVC10 Multi DTSHD 5.1 -DDR torrent


Download torrent:Download Fantastic Four 2015 2160p 4K UHD BluRay HEVC10 Multi DTSHD 5.1 -DDR torrentMagnet linkBookmark Torrent: Fantastic Four 2015 2160p 4K UHD BluRay HEVC10 Multi DTSHD 5.1 -DDR Fantastic Four 2015 2160p 4K UHD BluRay HEVC10 Multi DTSHD 5.1 -DDR torrent
Info hash:56D3740414482335D0BE100908529D94E2C44D55
Category:Categories > Movies torrents > Movies 4K torrents
Trackers:
15   View all torrent trackers >
Health:
 seeds: 151, leechers: 574| Update >
Torrent language:English English
Total Size:46.09 GB
Number of files:
4   View torrent files >
Torrent status:Added by trusted uploader Added by trusted uploader Vip MemberTrusted UploaderET junkieET loverSuperman
Uploader:Vip MemberTrusted UploaderET junkieET loverSuperman
Torrent added:2017-02-17 04:50:39   |   Last edit: 2017-02-23 14:57:55 by
SaM
Users rating:10.0 / 10, total 2 votes.  Latest by: Turtle, Site FriendET junkieET loverSuperman
Fantastic Four 2015 2160p 4K UHD BluRay HEVC10 Multi DTSHD 5.1 -DDR


Download Fantastic Four 2015 2160p 4K UHD BluRay HEVC10 Multi DTSHD 5.1 -DDR torrent




Your IP Address is 54.166.89.1.   Location is United States
Your Internet Provider and Government can track your torrent activity!  Hide your IP ADDRESS with a VPN!
ExtraTorrent strongly recommends using Trust.Zone VPN to anonymize your torrenting. It's FREE!

HIDE ME NOW
Torrent Description
ddr_logo.png
0b3fe2fe41bb63b242cb7bb8bb50922e.jpg

2160p 4K UltraHD BluRay Rip
HEVC 10 Bits BT709

English DTSHD-MA 5.1 Audio
French DTS 5.1 Audio


English, French Subs

SCREENSHOTS
7316355b28c407355e7e6911a74c3c60.th.png 13bee1f8924e667235e658db28a88c62.th.png 6ccdf65d6d05fe2df7c74028a028f40f.th.png 8fb05a9da4d2bfa0183121fab5d1f214.th.png 78137fce5d67c0091bcbf2103fc7abe2.th.png 57e121e553a7abab14675b764473b034.th.png 5e5a2c4ed82e79a80b2c687e3de7db0e.th.png


SPECS


Source : 4K UHD BluRay @ Zeus (Thanks)
Format : Matroska
File size : 45.9 GiB
Duration : 1 h 40 min
Overall bit rate : 65.6 Mb/s

Video
Format : HEVC
Format profile : Main [email protected]@Main
Bit rate : 60.0 Mb/s
Width : 3 840 pixels
Height : 2 160 pixels
Display aspect ratio : 16:9
Frame rate : 23.976 (24000/1001) FPS
Bit depth : 10 bits
Stream size : 41.9 GiB (91%)
Color primaries : BT.709

Audio #1
Format : DTS MA / Core
Bit rate : 4 937 kb/s / 1 509 kb/s / 1 509 kb/s
Channel(s) : 8 channels
Stream size : 3.45 GiB (8%)
Language : English

Audio #2
Format : DTS
Bit rate : 768 kb/s
Channel(s) : 6 channels
Stream size : 549 MiB (1%)
Language : French

Chapters : YES


SAMPLE Included

A DDR Exclusive Release

Download Fantastic Four 2015 2160p 4K UHD BluRay HEVC10 Multi DTSHD 5.1 -DDR torrent


Related Torrents


Comments (please add your comment)
1
posted by Site FriendET junkieET loverSuperman (2017-02-17 12:32:52)
Funky_Axl avatarthanx


2
posted by (2017-02-18 01:45:04)
No avatarThank You for the offering, But personally I think the only reason for this movie to be in higher res is - the clearer you see a pile of shit, the less likely you are to step in it.


3
posted by (2017-02-18 04:42:07)
Gemstoned avatarThanks


4
posted by ET junkieSuperman (2017-02-18 15:56:02)
boxopus avatarthnx TeamDDR


5
posted by (2017-02-19 08:12:23)
No avatarthanks for the upload! ;P
that said, 47GB is waaaaaaaaaaaaay to much storage wasted in this p.o.s xD





Home - Browse Torrents - Upload Torrent - Stat - Forum - FAQ - Login
ExtraTorrent.cc is in compliance with copyrights
BitCoin: 12DiyqsWhENahDzdhdYsRrCw8FPQVcCkcm
Can't load ExtraTorrent? Try our official mirrors: etmirror.com - etproxy.com - extratorrentonline.com - extratorrentlive.com
2006-2017 ExtraTorrent.cc6