ExtraTorrent.cc - The Largest Bittorent SystemLogin   |   Register
Latest Articles
Most searched
Hot torrents
First Cams
View Torrent Info: The Fate of the Furious 2017 HD-TS x264 AC3-CPG
View Torrent Info: The Boss Baby 2017 720p HD-TS x264 AC3-CPG
View Torrent Info: Before I Fall 2017 HDCAM 700MB x264-DiRG
View Torrent Info: The Belko Experiment 2017 HDCAM 700MB x264-DiRG
Hot torrents
XVID DIVX
View Torrent Info: Cyborg.X.2016.BRRip.XViD-ETRG
View Torrent Info: The.Amityville.Horror.2005.BRRip.XViD-ETRG
View Torrent Info: Only for One Night.2016.HDRip.XviD.AC3-EVO
View Torrent Info: Instant.Death.2017.DVDRip.XviD.AC3-EVO
Hot torrents
H264 X264
View Torrent Info: Wanted (2008) 720p BluRay x264 DTS Soup
View Torrent Info: Get.Out.2017.720p.HC.HDRip.XviD.AC3-EVO[EtHD]
View Torrent Info: Rings.2017.1080p.BRRip.x264.AAC-ETRG
View Torrent Info: Hacker.2016.720p.BRRip.x264.AAC-ETRG
Hot torrents
BluRay, 4k UHD
View Torrent Info: Mine 2017 Bluray 1080p x264 DTSHD 5.1 -DDR
View Torrent Info: All.We.Had.2016.Multi.1080p.Blu-ray.x264.DTS-HD.5.1-DDR
View Torrent Info: Paterson 2016 Multi BLURAY 1080p x264 DTSHD 5.1 -DDR
View Torrent Info: Rings.2017.Multi.BluRay.1080p.x264.DTS-HD.MA.7.1-DDR
Hot torrents
Television
View Torrent Info: Elementary.S05E20.HDTV.x264-KILLERS[ettv]
View Torrent Info: NCIS.Los.Angeles.S08E21.HDTV.x264-KILLERS[ettv]
View Torrent Info: UFC Fight Night 108 WEB-DL H264 Fight-BB
View Torrent Info: The.Son.S01E04.WEB-DL.x264-FUM[ettv]
View Torrent Info: Thoppil Joppan (2016) Bluray 1080p x264 TrueHD 5.1-DDR
View Torrent Info: Janaan (2016) TVRIP 1CDRIP x264 AAC 2.0 [DDR]
View Torrent Info: Norm Of The North (2016) x264 720p BluRay Eng Subs {Dual Audio} [Hindi ORG DD 2.0   English 5.1] Exclusive By DREDD
View Torrent Info: Oh My Friend (2011) 1080p Bluray x264 DTSHD 5.1 -DDR
30s
Chat
To add new messages please Login or Register for FREE
Warning! Stop Government from Tracking Your Torrenting!
Your IP Address is 54.166.231.176.   Location is United States
Your Internet Provider and Government can track your internet activity! Hide your IP and LOCATION with a VPN
ExtraTorrent strongly recommends using Trust.Zone VPN to anonymize your torrenting. It's FREE!
HIDE ME NOW

ExtraTorrent.cc > Categories > Movies torrents > Horror torrents


Browse Movies torrents

Stake Land II 2016 1080p Bluray HEVC 10Bits DTSHD 5.1 -DDR torrent


Download torrent:Download Stake Land II 2016 1080p Bluray HEVC 10Bits DTSHD 5.1 -DDR torrentMagnet linkBookmark Torrent: Stake Land II 2016 1080p Bluray HEVC 10Bits DTSHD 5.1 -DDR Stake Land II 2016 1080p Bluray HEVC 10Bits DTSHD 5.1 -DDR torrent
Info hash:8A3D44BE1F96C24D138D5CED11EB1D855EB8F376
Category:Categories > Movies torrents > Horror torrents
Trackers:
15   View all torrent trackers >
Health:
 seeds: 239, leechers: 197| Update >
Torrent language:English English
Total Size:6.88 GB
Number of files:
4   View torrent files >
Torrent status:Added by trusted uploader Added by trusted uploader Vip MemberTrusted UploaderET junkieET loverSuperman
Uploader:Vip MemberTrusted UploaderET junkieET loverSuperman
Torrent added:2017-02-16 04:10:20
Users rating:9.3 / 10, total 3 votes.  Latest by: Turtle, ET junkie, Site FriendET junkieET loverSuperman
Stake Land II 2016 1080p Bluray HEVC 10Bits DTSHD 5.1 -DDR


Download Stake Land II 2016 1080p Bluray HEVC 10Bits DTSHD 5.1 -DDR torrent




Your IP Address is 54.166.231.176.   Location is United States
Your Internet Provider and Government can track your torrent activity!  Hide your IP ADDRESS with a VPN!
ExtraTorrent strongly recommends using Trust.Zone VPN to anonymize your torrenting. It's FREE!

HIDE ME NOW
Torrent Info URL

http://www.imdb.com/title/tt5843670/


Torrent Description
ddr_logo.png
f8967cb0ac95b4ba30f9bab32e13eead.jpg

1080p Blu-Ray Rip HEVC 10 Bits

English DTSHD-MA 5.1 Audio

English Subs

SCREENSHOTS
f7ef594fb38a40b4a759fd89dcf70d79.th.png 114a21614a0f6642e7f689699f163bf2.th.png c1ae844c10c34439780d93944b13d2a5.th.png 592c43ebe9904b2f927fdd61a00fcb3d.th.png 5eda6f656bee62ff7811ef26f5f835ea.th.png 163f460ca0e6054f2072e274eb14d375.th.png 7de8e2f57fa4e8e76b64849db0e8a3c8.th.png ba29d1583628703d306b067954125199.th.png 7ff0949ef0aef49c4b60b8f1816c2fc3.th.png

SPECS


Source: Blu-ray @ HDT

Format : Matroska
File size : 6.83 GiB
Duration : 1 h 25 min
Overall bit rate : 11.5 Mb/s

Video
Format : HEVC
Format profile : Main [email protected]@Main
Bit rate : 9 555 kb/s
Width : 1 920 pixels
Height : 800 pixels
Display aspect ratio : 2.40:1
Frame rate : 23.976 (24000/1001) FPS
Bit depth : 10 bits
Stream size : 5.69 GiB (83%)
Color primaries : BT.709

Audio #1
Format : DTSHD-MA 5.1
Bit rate : 1 920 kb/s / 1 509 kb/s
Bit depth : 16 bits
Stream size : 1.14 GiB (17%)
Language : English

Chapters : YES


SAMPLE Included

A DDR Exclusive Encode

Download Stake Land II 2016 1080p Bluray HEVC 10Bits DTSHD 5.1 -DDR torrent


Related Torrents


Comments (please add your comment)
1
posted by Site FriendET junkieET loverSuperman (2017-02-17 12:32:53)
Funky_Axl avatarthanx


2
posted by ET junkie (2017-02-17 14:40:06)
Sagittarius_Boy avatarThanks TeamDDR...!!





Home - Browse Torrents - Upload Torrent - Stat - Forum - FAQ - Login
ExtraTorrent.cc is in compliance with copyrights
Can't load ExtraTorrent? Try our official mirrors: etmirror.com - etproxy.com - extratorrentonline.com - extratorrentlive.com
2006-2017 ExtraTorrent.cc3