ExtraTorrent.cc - The Largest Bittorent SystemLogin   |   Register
Latest Articles
Most searched
Hot torrents
First Cams
View Torrent Info: The.Fate.of.the.Furious.2017.HDTS.H264.AC3.HQ.Hive-CM8
View Torrent Info: The Boss Baby 2017 720p HD-TS x264 AC3-CPG
View Torrent Info: Before I Fall 2017 HDCAM 700MB x264-DiRG
View Torrent Info: The Belko Experiment 2017 HDCAM 700MB x264-DiRG
Hot torrents
XVID DIVX
View Torrent Info: Small.Crimes.2017.HDRip.XviD.AC3-EVO
View Torrent Info: The.Sex Addict.2017.HDRip.XViD-ETRG
View Torrent Info: A.Dark.Song.2016.HDRip.XviD.AC3-EVO
View Torrent Info: Voice.from.the.Stone.2017.HDRip.XViD-ETRG
Hot torrents
H264 X264
View Torrent Info: Rogue One (2016) 720p BluRay x264 DTS Soup
View Torrent Info: Sold (2016) x264 DvDRip DDS 5.1 Esub -DDR
View Torrent Info: Voice.from.the.Stone.2017.720p.WEB-DL.H264.AC3-ETRG
View Torrent Info: The Green Mile (1999) 720p BluRay x264 AC3 Soup
Hot torrents
BluRay, 4k UHD
View Torrent Info: Fifty.Shades.Darker.2017.UNRATED.Multi.1080p.BluRay.x264.DTSHD7.1-DDR
View Torrent Info: Avatar.2009.4K.HDR.10bit.BT2020.DTS.HD.MA-VISIONPLUSHDR1000
View Torrent Info: The Void 2016 Bluray 1080P x264 DTSHD 5.1 -DDR
View Torrent Info: The Legend of Ben Hall 2016 Bluray 1080p x264 DTSHD5.1 -DDR
Hot torrents
Television
View Torrent Info: The.Blacklist.S04E18.HDTV.x264-KILLERS[ettv]
View Torrent Info: Greys.Anatomy.S13E21.HDTV.x264-KILLERS[ettv]
View Torrent Info: The.Last.Kingdom.S02E07.HDTV.x264-MTB[ettv]
View Torrent Info: Arrow.S05E19.WEB-DL.x264-FUM[ettv]
View Torrent Info: [ 18] High Test Girls (1980) DVDRip x264 [Dual Audio][German English]--prisak~~{HKRG}
View Torrent Info: Baahubali 2 (2017) DesiCAM 1CDRIP x264 AAC [DDR]
View Torrent Info: Maya (2015) 1080p Untouched WEBHD AVC AAC [DDR]
View Torrent Info: Rebel (2012) 1080p Bluray x264 DTSHD 5.1 ESub -DDR
30s
Chat
To add new messages please Login or Register for FREE
Warning! Use a VPN When Downloading Torrents!
Your IP Address is 54.81.241.238.   Location is United States
Your Internet Provider and Government can track your torrent activity!  Hide your IP ADDRESS with a VPN!
ExtraTorrent strongly recommends using Trust.Zone VPN to anonymize your torrenting. It's FREE!
Get VPN Now for FREE!

ExtraTorrent.cc > Categories > Movies torrents > Comedy torrents


Browse Movies torrents

Death Race 2050 (2017) Multi 1080p Blu-Ray x264 DTSHD 5.1 -DDR torrent


Download torrent:Download Death Race 2050 (2017) Multi 1080p Blu-Ray x264 DTSHD 5.1 -DDR torrentMagnet linkBookmark Torrent: Death Race 2050 (2017) Multi 1080p Blu-Ray x264 DTSHD 5.1 -DDR Death Race 2050 (2017) Multi 1080p Blu-Ray x264 DTSHD 5.1 -DDR torrent
Info hash:793999AE12A10BA79F8BC5220DECE3E16865F94D
Category:Categories > Movies torrents > Comedy torrents
Trackers:
13   View all torrent trackers >
Health:
 seeds: 544, leechers: 1056| Update >
Torrent language:English English
Total Size:9.88 GB
Number of files:
4   View torrent files >
Torrent status:Added by trusted uploader Added by trusted uploader Vip MemberTrusted UploaderET junkieET loverSuperman
Uploader:Vip MemberTrusted UploaderET junkieET loverSuperman
Torrent added:2017-01-12 00:34:53   |   Last edit: 2017-01-14 15:10:16 by
SaM
Users rating:10.0 / 10, total 2 votes.  Latest by: Site FriendET loverSupermanSunTurtle,
Death Race 2050 (2017) Multi 1080p Blu-Ray x264 DTSHD 5.1 -DDR


Download Death Race 2050 (2017) Multi 1080p Blu-Ray x264 DTSHD 5.1 -DDR torrent




Your IP Address is 54.81.241.238.   Location is United States
Your Internet Provider and Government can track your torrent activity!  Hide your IP ADDRESS with a VPN!
ExtraTorrent strongly recommends using Trust.Zone VPN to anonymize your torrenting. It's FREE!

HIDE ME NOW
Torrent Description
ddr_logo.png
e1a5de9a9f420c9699140280a489a941.md.jpg

HQ 1080p Blu-Ray Rip x264

English DTSHD-MA 5.1 Audio
French DTS 5.1 Audio

English/French/Spanish Sub

SCREENSHOTS
8f37d41d91cc3b806e592bded63573a9.th.png 552632a726e76cb500d4128132f481bb.th.png 7a7790177551d443928c7bf686314ca0.th.png d9ab257cb597837bb166c323e9519955.th.png bd482de7d62888d0066312ba7397d800.th.png 23d1adb1fe50a75dfda3e0079fb5d8d4.th.png 242e3b2d9c49413465cdc6b02eb9e950.th.png c0053fd3a83af8543d88e21d1669b970.th.png f6a7621860e17bad3e28b7b1718114bc.th.png 76b1b8bff006a7dda2b20bc580663cbc.th.png 7f71634ce83a9e55570ccda599d9a706.th.png 983d6aec75597d779501bb58ade7440c.th.png

SPECS


Source: Blu-ray

Format : Matroska
File size : 9.83 GiB
Duration : 1 h 32 min
Overall bit rate : 15.2 Mb/s

Video
Format : AVC
Format/Info : Advanced Video Codec
Format profile : [email protected]
Format settings, CABAC : Yes
Format settings, ReFrames : 4 frames
Codec ID : V_MPEG4/ISO/AVC
Duration : 1 h 32 min
Bit rate : 10.0 Mb/s
Width : 1 920 pixels
Height : 1 080 pixels
Display aspect ratio : 16:9
Frame rate mode : Constant
Frame rate : 23.976 (24000/1001) FPS
Color space : YUV
Chroma subsampling : 4:2:0
Bit depth : 8 bits
Scan type : Progressive
Bits/(Pixel*Frame) : 0.201
Stream size : 6.48 GiB (66%)
Default : Yes
Forced : No
Color range : Limited
Color primaries : BT.709
Transfer characteristics : BT.709
Matrix coefficients : BT.709

Audio #1
ID : 2
Format : DTS
Format/Info : Digital Theater Systems
Format profile : MA / Core
Mode : 16
Format settings, Endianness : Big
Codec ID : A_DTS
Duration : 1 h 32 min
Bit rate mode : Variable / Constant
Bit rate : 4 372 kb/s / 1 509 kb/s
Channel(s) : 6 channels
Channel positions : Front: L C R, Side: L R, LFE
Sampling rate : 48.0 kHz
Frame rate : 93.750 FPS (512 spf)
Bit depth : 24 bits
Compression mode : Lossless / Lossy
Stream size : 2.83 GiB (29%)
Language : English
Default : Yes
Forced : No

Audio #2
ID : 3
Format : DTS
Format/Info : Digital Theater Systems
Mode : 16
Format settings, Endianness : Big
Codec ID : A_DTS
Duration : 1 h 32 min
Bit rate mode : Constant
Bit rate : 768 kb/s
Channel(s) : 6 channels
Channel positions : Front: L C R, Side: L R, LFE
Sampling rate : 48.0 kHz
Frame rate : 93.750 FPS (512 spf)
Bit depth : 24 bits
Compression mode : Lossy
Stream size : 509 MiB (5%)
Language : French
Default : No
Chapters : YES

SAMPLE Included

A DDR Exclusive Encode

Download Death Race 2050 (2017) Multi 1080p Blu-Ray x264 DTSHD 5.1 -DDR torrent


Related Torrents


Comments (please add your comment)
1
posted by ET junkieSuperman (2017-01-12 02:55:51)
boxopus avatarthnx TeamDDR


2
posted by Site FriendET loverSupermanSunTurtle (2017-01-20 05:48:29)
enigmatic81 avatarThank you TeamDDR


3
posted by (2017-01-21 09:11:43)
J0EC00L avatarthis movie is freely available online for few months now ...was a Youtube realease..In HD....might save you download time by scootin through it first...def nothing like the last movies...more like a power rangers gore film to me...pretty stupid and b-grade





Home - Browse Torrents - Upload Torrent - Stat - Forum - FAQ - Login
ExtraTorrent.cc is in compliance with copyrights
Can't load ExtraTorrent? Try our official mirrors: etmirror.com - etproxy.com - extratorrentonline.com - extratorrentlive.com
2006-2017 ExtraTorrent.cc2